Скачать через торрент Однажды в Ростове Серии: 1-24 из 24 Фильм бесплатно в хорошем качестве torrent

Скачивайте на UnionPeer.org фильмы через торрент без регистрации. Новинки кино в хорошем качестве через торрент. На UnionPeer.org можно скачать через торрент фильмы 2014 и 2015 годов. Самые новые фильмы.

Скачать торрент Однажды в Ростове Серии: 1-24 из 24 бесплатно через .torrent фильм мультфильм сериал

Статистика раздачи
Размер:  38.57 GB   |    Зарегистрирован:  4 месяца 11 дней   |    .torrent скачан:  114 раз   |   
Раздают:  1  
   
загрузка...
 
Автор Сообщение

Galfimbul

avatar Galfimbul


Однажды в Ростове

Год выпуска: 2012
Производство: "ООО Продюсерский центр Сергея Жигунова"
Жанр: драма, криминал
Продолжительность: ~00:44:00 серия
Субтитры: нет

Режиссёр: Константин Худяков

В ролях: Владимир Вдовиченков, Кирилл Плетнёв, Екатерина Олькина, Сергей Жигунов, Алёна Бабенко, Богдан Ступка, Виктор Раков, Екатерина Вуличенко, Владимир Юматов, Алексей Бардуков, Константин Лавроненко, Юрий Беляев, Михаил Евланов, Виталий Хаев, Екатерина Климова, Евгений Князев, Екатерина Никитина, Дмитрий Муляр, Александр Сирин, Анна Каменкова, Андрей Ильин, Екатерина Вилкова, Сергей Шеховцов, Сергей Тарамаев, Алексей Воробьёв, Анна Миклош, Сергей Петров, Алла Мещерякова, Наталья Заякина, Ксения Лаврова-Глинка, Денис Васильев, Екатерина Юдина, Владимир Сычёв, Владимир Тимофеев, Иван Суханов, Сергей Сосновский, Пётр Ступин, Юлия Рутберг, Сергей Лосев, Карэн Бадалов, Валерий Ненашев, Геннадий Храпунков, Николай Токарев
Описание: СССР, 2 июня 1962 года. После снижения заработной платы и повышения цен жители Новочеркасска вышли на мирную демонстрацию. Но страсти быстро накалились и привели к трагедии — расстрелу митингующих рабочих, несмотря на протесты генерала Шапошникова. Властям удается замять трагедию, у свидетелей берут подписку о неразглашении, а все несогласные получают тюремные сроки.
Работающий в ростовском кинотеатре художником Вячеслав Толстопятов поехал в Новочеркасск погостить у любимой девушки, а также сбыть изготовленные им фальшивые деньги, но стал свидетелем расстрела мирных людей…

Реклама: Нет.

Все раздачи сериала
Sample

Качество: WEBRip 1080p - Nikolspup
Формат: MKV
Видео кодек: H.264
Аудио кодек: AC3
Видео: MPEG4 AVC Video, H264, 16:9, 1920x1080, 25 fps, ~5000 kbps, 0.096 bit/pixel
Аудио: AC3 Dolby Digital, 48.0 kHz, 2/0 (L,R) ch, 192 kbps
General
Unique ID : 173109291561048239174280525602771695981 (0x823BA30716988BFE83F22EC29CF3F96D)
Complete name : J:\Odnajdy.v.Rostove.2012.WEB-DL.(1080p).Nikolspup\Odnajdy.v.Rostove.(01.seriya.iz.24).2012.WEB-DL.(1080p).Nikolspup.mkv
Format : Matroska
Format version : Version 4 / Version 2
File size : 1.60 GiB
Duration : 44 min 5 s
Overall bit rate mode : Variable
Overall bit rate : 5 196 kb/s
Encoded date : UTC 2018-07-29 16:00:10
Writing application : mkvmerge v7.8.0 ('River Man') 32bit built on Mar 27 2015 16:18:02
Writing library : libebml v1.3.1 + libmatroska v1.4.2

Video
ID : 1
Format : AVC
Format/Info : Advanced Video Codec
Format profile : High@L4
Format settings : CABAC / 3 Ref Frames
Format settings, CABAC : Yes
Format settings, ReFrames : 3 frames
Format settings, GOP : M=2, N=15
Codec ID : V_MPEG4/ISO/AVC
Duration : 44 min 5 s
Bit rate mode : Variable
Bit rate : 5 002 kb/s
Maximum bit rate : 40.0 Mb/s
Width : 1 920 pixels
Height : 1 080 pixels
Display aspect ratio : 16:9
Frame rate mode : Constant
Frame rate : 25.000 FPS
Color space : YUV
Chroma subsampling : 4:2:0
Bit depth : 8 bits
Scan type : Progressive
Bits/(Pixel*Frame) : 0.096
Stream size : 1.54 GiB (96%)
Default : Yes
Forced : No
Color range : Limited
Color primaries : BT.709
Transfer characteristics : BT.709
Matrix coefficients : BT.709

Audio
ID : 2
Format : AC-3
Format/Info : Audio Coding 3
Codec ID : A_AC3
Duration : 44 min 4 s
Bit rate mode : Constant
Bit rate : 192 kb/s
Channel(s) : 2 channels
Channel positions : Front: L R
Sampling rate : 48.0 kHz
Frame rate : 31.250 FPS (1536 SPF)
Bit depth : 16 bits
Compression mode : Lossy
Stream size : 60.5 MiB (4%)
Language : Russian
Service kind : Complete Main
Default : Yes
Forced : No


Трекер:  [ 30-Июл-2018 11:12 ]

  

Скачать .torrent

Размер .torrent файла 195 KB


Размер: 38.57 GB
Хэш (hash) релиза: d6256652dff3fa20935f4432ce236c6f92fa6ad0
Подписка на обновления:

Торренты, похожие на Однажды в Ростове Серии: 1-24 из 24 скачать торрент

Форум Название Автор Размер S L Добавлен
Российские сериалы ·· Однажды в Ростове / Серии: 1-24 из 24 (Константин Худяков) [2012, Криминал, сага, DVDRip] Galfimbul 1779822592016.58 GB 0 0 1456505650

19:54

26-Фев-16

Российские сериалы ·· Однажды в Ростове / Серии: 1-24 из 24 (Константин Худяков) [2012, Россия, драма, криминал, 8 х DVD5 (Custom)] Galfimbul 3351471104031.21 GB 0 0 1384980227

23:43

20-Ноя-13

Российские сериалы ·· Однажды в Ростове / Сериии 1-24 из 24 (Константин Худяков) [2012, Россия, драма, криминал, 4xDVD9] R5 Original Rus Galfimbul 3306871824030.8 GB 0 0 1384764686

11:51

18-Ноя-13

Российские сериалы ·· Однажды в Ростове / Сериии 1-24 из 24 (Константин Худяков) [2012, драма, криминал, DVDRip-AVC] Galfimbul 1777526490916.55 GB 0 0 1384702308

18:31

17-Ноя-13

Российские сериалы ·· Однажды в Ростове / Серии: 1-24 из 24 (Константин Худяков) [2012, Драма, SATRip-AVC] Galfimbul 1562172661814.55 GB 0 0 1379990107

05:35

24-Сен-13

Российские сериалы ·· Однажды в Ростове / Серии: 1-24 из 24 (Константин Худяков) [2012, Драма, DVB] L 2131640320019.85 GB 0 0 1361689061

09:57

24-Фев-13

Российские сериалы ·· Однажды в Ростове / Серии: 1-24 из 24 (Константин Худяков) [2012, Криминальная сага, SATRip] L 1282673254411.95 GB 0 0 1361689016

09:56

24-Фев-13

Российские сериалы ·· Однажды в Ростове / Серии: 1-3 из 24 (Константин Худяков) [2012, Драма, HDTVRip-AVC] Galfimbul 21541610412.01 GB 0 0 1428698106

23:35

10-Апр-15

Российские сериалы ·· Однажды в Ростове / Серии: 1-6 из 24 (Константин Худяков) [2012, Драма, HDTVRip 720p] Galfimbul 100244703959.34 GB 0 0 1428588208

17:03

9-Апр-15

Российские сериалы ·· Однажды в Ростове / Серии: 1-2 из 24 (Константин Худяков) [2012, Драма, HDTV 1080i] Galfimbul 50059722564.66 GB 0 0 1428391961

10:32

7-Апр-15

Российские сериалы ·· Однажды в Ростове / Серии: 1-2 из 24 (Константин Худяков) [2012, Драма, HDTVRip] Galfimbul 13011148801.21 GB 0 0 1428391958

10:32

7-Апр-15

Российские сериалы ·· Однажды в Ростове (1-24 серии из 24) (Константин Худяков) [2012, Криминальная сага, 4 x DVD9] Galfimbul 3306871824030.8 GB 0 0 1384701516

18:18

17-Ноя-13

Еще никто не оставлял запись к записи скачать торрент Однажды в Ростове Серии: 1-24 из 24 . Будь первым!

!Обратная связь