Скачать через торрент По болезни Sick Note Фильм бесплатно в хорошем качестве torrent

Скачивайте на UnionPeer.org фильмы через торрент без регистрации. Новинки кино в хорошем качестве через торрент. На UnionPeer.org можно скачать через торрент фильмы 2014 и 2015 годов. Самые новые фильмы.

Скачать торрент По болезни Sick Note бесплатно через .torrent фильм мультфильм сериал

Статистика раздачи
Размер:  2.49 GB   |    Зарегистрирован:  4 месяца 12 дней   |    .torrent скачан:  49 раз   |   
Раздают:  1  
   
загрузка...
 
Автор Сообщение

Galfimbul

avatar Galfimbul



По болезни / Sick Note
Год выпуска • 2018
Страна • Великобритания
Жанр • комедия
Продолжительность • ~22 мин.
Перевод
<div style="margin-left: 2em" class="post-ul">• Любительский (многоголосый, закадровый) "OMSKBIRD"</div>
Создатель • Мэтт Липси
В ролях • Руперт Гринт, Ник Фрост, Пиппа Беннетт-Уорнер, Марама Корлетт, Линдси Лохан, Карл Теобалд, Белинда Стюарт-Уилсон, Дон Джонсон, Камилла Бипут, Майлз Ричардсон и др.
Описание • Дэниел Глэсс не очень удачлив: у него никак не складывается личная жизнь, да и начальник, Кенни Уэст, постоянно к нему придирается. Поэтому парню часто приходится врать и изворачиваться. Но однажды всё меняется: доктор Йен Гленнис сообщает молодому человеку, что у него рак. Узнав о страшном диагнозе, окружающие меняют своё отношение к Дэниелу. Парень привыкает к опеке коллег и близких и когда узнаёт о том, что на самом деле абсолютно здоров, скрывает это известие от всех…
Реклама: аудио (два раза, в начале и конце, по 15 сек.)
Внимание! Присутствует нецензурная лексика.
Качество: HDTVRip 1080p
Формат: MKV
Видео: MPEG-4 AVC / ~ 7300 kbps / 1916х1080p / 25.000 fps / 16:9 / ~ 0.140 bit/pixel / High Level 4.1
Аудио:
Русский / Dolby Digital 5.1 / 48 kHz / 384 kbps
English / Dolby Digital 5.1 / 48 kHz / 384 kbps
<div style="margin-left: 2em" class="post-ul">Ссылки • | Сэмпл | | |</div>
General
Unique ID : 227574345739767897985398614082747766194 (0xAB3539862A67B6C0BB77FD08EA0A15B2)
Complete name : H:\Мои Документы\Видео\РАЗДАЧИ\СИК НОУТ\2 СЕЗОН\Sick Note S02 HDTVrip 1080p (OMSKBIRD)\Sick Note S02E01 HDTVrip 1080p (OMSKBIRD).mkv
Format : Matroska
Format version : Version 2
File size : 1.32 GiB
Duration : 22 min 57 s
Overall bit rate : 8 248 kb/s
Encoded date : UTC 2018-07-30 16:29:33
Writing application : mkvmerge v4.0.0 ('The Stars were mine') сборка от Jun 6 2010 16:18:42
Writing library : libebml v1.0.0 + libmatroska v1.0.0

Video
ID : 1
Format : AVC
Format/Info : Advanced Video Codec
Format profile : High@L4.1
Format settings, CABAC : Yes
Format settings, RefFrames : 4 frames
Codec ID : V_MPEG4/ISO/AVC
Duration : 22 min 57 s
Bit rate : 7 316 kb/s
Width : 1 916 pixels
Height : 1 080 pixels
Display aspect ratio : 16:9
Frame rate mode : Constant
Frame rate : 25.000 FPS
Color space : YUV
Chroma subsampling : 4:2:0
Bit depth : 8 bits
Scan type : Progressive
Bits/(Pixel*Frame) : 0.141
Stream size : 1.17 GiB (89%)
Writing library : x264 core 155 r2901 7d0ff22
Encoding settings : cabac=1 / ref=4 / deblock=1:-2:-2 / analyse=0x3:0x113 / me=hex / subme=8 / psy=1 / psy_rd=1.00:0.00 / mixed_ref=1 / me_range=16 / chroma_me=1 / trellis=2 / 8x8dct=1 / cqm=0 / deadzone=21,11 / fast_pskip=1 / chroma_qp_offset=-2 / threads=12 / lookahead_threads=2 / sliced_threads=0 / nr=0 / decimate=1 / interlaced=0 / bluray_compat=0 / constrained_intra=0 / bframes=3 / b_pyramid=2 / b_adapt=1 / b_bias=0 / direct=3 / weightb=1 / open_gop=0 / weightp=2 / keyint=250 / keyint_min=25 / scenecut=40 / intra_refresh=0 / rc_lookahead=50 / rc=crf / mbtree=1 / crf=17.0 / qcomp=0.60 / qpmin=0 / qpmax=69 / qpstep=4 / ip_ratio=1.40 / aq=1:1.00
Default : No
Forced : No
Color range : Limited
Matrix coefficients : BT.709

Audio #1
ID : 2
Format : AC-3
Format/Info : Audio Coding 3
Format settings, Endianness : Big
Codec ID : A_AC3
Duration : 22 min 57 s
Bit rate mode : Constant
Bit rate : 384 kb/s
Channel(s) : 6 channels
Channel positions : Front: L C R, Side: L R, LFE
Sampling rate : 48.0 kHz
Frame rate : 31.250 FPS (1536 SPF)
Bit depth : 16 bits
Compression mode : Lossy
Stream size : 63.1 MiB (5%)
Language : Russian
Service kind : Complete Main
Default : Yes
Forced : No

Audio #2
ID : 3
Format : AC-3
Format/Info : Audio Coding 3
Format settings, Endianness : Big
Codec ID : A_AC3
Duration : 22 min 57 s
Bit rate mode : Constant
Bit rate : 384 kb/s
Channel(s) : 6 channels
Channel positions : Front: L C R, Side: L R, LFE
Sampling rate : 48.0 kHz
Frame rate : 31.250 FPS (1536 SPF)
Bit depth : 16 bits
Compression mode : Lossy
Stream size : 63.1 MiB (5%)
Language : English
Service kind : Complete Main
Default : No
Forced : No
Внимание! Раздача ведётся путём добавления новых серий; при каждом добавлении создётся новый торрент. Чтобы начать докачку новой серии, пользователям необходимо сделать следующее:
Остановить скачивание.
Удалить старый торрент у себя из клиента (старые серии удалять не надо).
Скачать новый торрент и запустить его у себя в клиенте вместо старого, при этом указать клиенту путь в старую папку куда и должно происходить скачивание новых серий.
Ваш клиент при этом должен произвести хеширование (проверку) старой папки (если не производит сам - помогите ему сделать это), и будет докачивать только те серии которых у вас ещё нет. Старые серии при этом не удаляются, а продолжают раздаваться!
Eсли вы уже удалили старые серии, то предотвратить повторную закачку старых серий можно, отжав галочку в соответсвующих местах при запуске нового торрента. По возможности, желательно не удалять старые серии как можно дольше чтобы релизёр не столько продолжал раздавать старые серии, а смог сконцентрироваться на новых.


Трекер:  [ 31-Июл-2018 12:18 ]

  

Скачать .torrent

Размер .torrent файла 13 KB


Размер: 2.49 GB
Хэш (hash) релиза: bd0a1c039e1b4319c381c29827f057e941d1a923
Подписка на обновления:

Еще никто не оставлял запись к записи скачать торрент По болезни Sick Note . Будь первым!

!Обратная связь