Скачать через торрент Шелест. Большой передел Сезон-2 Фильм бесплатно в хорошем качестве torrent

Скачивайте на UnionPeer.org фильмы через торрент без регистрации. Новинки кино в хорошем качестве через торрент. На UnionPeer.org можно скачать через торрент фильмы 2014 и 2015 годов. Самые новые фильмы.

Скачать торрент Шелест. Большой передел Сезон-2 бесплатно через .torrent фильм мультфильм сериал

Статистика раздачи
Размер:  10.66 GB   |    Зарегистрирован:  3 месяца 11 дней   |    .torrent скачан:  709 раз   |   
Раздают:  1  
   
загрузка...
 
Автор Сообщение

aleksan55

avatar aleksan55


Шелест. Большой передел | Шелест-2

Год выпуска: 2017
Страна: Россия | Киностудия КИТ
Жанр: криминал, боевик
Продолжительность: 00:49:00
Субтитры: нет
Режиссёр: Дмитрий Коробкин

В ролях: Владимир Зайцев, Сергей Чирков, Константин Федоров , Юрий Архангельский, Михаил Химичев, Елена Корикова, Ольга Абрамова, Игорь Старосельцев, Александр Лырчиков, Кирилл Быркин, Валентин Варецкий, Сергей Генкин, Максим Литовченко, Андрей Багиров, Владимир Гусев , Михаил Полицеймако, Натали Старынкевич, Алексей Павлусенко, Дмитрий Коробкин, Константин Снегов, Алексей Матвеев, Елена Полякова, Юрий Ваксман, Константин Силаков, Сергей Шарифуллин, Ирина Туманцева, Илья Колесов, Олег Новиков , Ирина Климушкина, Иван Баранов, Ольга Маругина, Евгений Леконцев, Александра Артемьева, Людмила Ковалёва, Вадим Ракитин
Описание:
Павел Шелестов продолжает работу в ярославском уголовном розыске и пытается построить стабильные отношения с Алиной Большовой, вдовой главы преступной группировки. После потери мужа героиня получает в наследство огромное состояние, но вместе с тем становится мишенью для охотников за сбережениями Большова. Теперь Шелесту предстоит сразиться с оставшимися без присмотра бандитами, и придумать, как сохранить жизнь своей возлюбленной.

Качество: SATRip-AVC
Формат: MKV
Видео кодек: H.264
Аудио кодек: AC3
Видео: MPEG4 Video (H264), 720x400, 25fps,1700 Kbps,bit/pixel 0.236
Аудио : AC3 48000Hz, stereo, 256 kbps,2 ch
Общее
Уникальный идентификатор : 214531407345417857007281497681859433393 (0xA1653F032645D7FFBF397CA7F6AFD3B1)
Полное имя : H:\Шелест. Большой передел\01 серия_Шелест. Большой передел_rip by_Aleksan55.mkv
Формат : Matroska
Версия формата : Version 2
Размер файла : 695 Мбайт
Продолжительность : 49 м. 38 с.
Общий поток : 1958 Кбит/сек
Дата кодирования : UTC 2018-08-20 13:44:36
Программа кодирования : mkvmerge v7.8.0 ('River Man') 32bit built on Apr 3 2015 12:11:22
Библиотека кодирования : libebml v1.3.1 + libmatroska v1.4.2

Видео
Идентификатор : 1
Формат : AVC
Формат/Информация : Advanced Video Codec
Профиль формата : High@L4.1
Параметр CABAC формата : Да
Параметр ReFrames формата : 14 кадров
Идентификатор кодека : V_MPEG4/ISO/AVC
Продолжительность : 49 м. 38 с.
Битрейт : 1700 Кбит/сек
Ширина : 720 пикселей
Высота : 400 пикселей
Соотношение сторон : 16:9
Режим частоты кадров : Постоянный
Частота кадров : 25,000 кадров/сек
Цветовое пространство : YUV
Субдискретизация насыщенности : 4:2:0
Битовая глубина : 8 бит
Тип развёртки : Прогрессивная
Бит/(Пиксели*Кадры) : 0.236
Размер потока : 591 Мбайт (85%)
Библиотека кодирования : x264 core 146 r2538 121396c
Настройки программы : cabac=1 / ref=14 / deblock=1:-1:-1 / analyse=0x3:0x133 / me=umh / subme=9 / psy=1 / psy_rd=0.90:0.15 / mixed_ref=0 / me_range=32 / chroma_me=1 / trellis=2 / 8x8dct=1 / cqm=0 / deadzone=21,11 / fast_pskip=1 / chroma_qp_offset=-3 / threads=12 / lookahead_threads=1 / sliced_threads=0 / nr=0 / decimate=0 / interlaced=0 / bluray_compat=0 / constrained_intra=0 / bframes=14 / b_pyramid=2 / b_adapt=1 / b_bias=0 / direct=3 / weightb=1 / open_gop=0 / weightp=2 / keyint=250 / keyint_min=25 / scenecut=40 / intra_refresh=0 / rc_lookahead=40 / rc=2pass / mbtree=1 / bitrate=1700 / ratetol=1.0 / qcomp=0.60 / qpmin=0 / qpmax=39 / qpstep=4 / cplxblur=20.0 / qblur=0.5 / ip_ratio=1.40 / aq=1:1.00
Default : Да
Forced : Нет
Цветовой диапазон : Limited
Основные цвета : BT.601 PAL
Характеристики трансфера : BT.470 System B, BT.470 System G
Коэффициенты матрицы : BT.601

Аудио
Идентификатор : 2
Формат : AC-3
Формат/Информация : Audio Coding 3
Расширение режима : CM (complete main)
Параметр Endianness формата : Big
Идентификатор кодека : A_AC3
Продолжительность : 49 м. 38 с.
Вид битрейта : Постоянный
Битрейт : 256 Кбит/сек
Каналы : 2 канала
Расположение каналов : Front: L R
Частота : 48,0 КГц
Частота кадров : 31,250 кадров/сек (1536 spf)
Битовая глубина : 16 бит
Метод сжатия : С потерями
Размер потока : 90,9 Мбайт (13%)
Default : Да
Forced : Нет :


Добавлены 15-16 серия.


Трекер:  [ 30-Авг-2018 22:19 ]

  

Скачать .torrent

Размер .torrent файла 55 KB


Размер: 10.66 GB
Хэш (hash) релиза: 641567cc0de1b4118c53060987c7e46418821fc7
Подписка на обновления:

Еще никто не оставлял запись к записи скачать торрент Шелест. Большой передел Сезон-2 . Будь первым!

!Обратная связь